Скачать | Nick Kroll | 12 16 2015-02-19Two and a Half Men - Of Course He's Dead - Part Two

The Big Bang Theory S09E22 720p HDTV X264-DIMENSION[rartv]

seeders: 179
leechers: 6
updated:
Added by z0n3212.58M in TV
Torrent verified. Downloaded 123,417 times.

DownloadFast Safe Anonymous
movies, software, shows...
  • View all The Big Bang Theory episodes
  • Episode title: The Fermentation Bifurcation
  • Episode: S09E22
  • Air date: 28 April 2016
  • IMDb link: 0898266
  • TVmaze link: The Big Bang Theory
  • Original run: 24 September 2007 — Present
  • Summary:

    The Big Bang Theory is a comedy series about four young scientists who know all about the world of physics, and one girl, who gives the physics world a real spin.

    Written by Xenomorph101.61K
Available in versions: 1080p720p480pHDTVWEBRipx264x265iPhone
The Big Bang Theory S09E22 720p HDTV X264-DIMENSION[rartv] (Size: 445.23 MB)
  rarbg.com.txt 34 bytes
  The.Big.Bang.Theory.S09E22.720p.HDTV.X264-DIMENSION.mkv 445.23 MB
  the.big.bang.theory.922.720p-dimension.nfo 410 bytes

Description


http://rarbg.to
The.Big.Bang.Theory.S09E22.720p.HDTV.X264-DIMENSION[rartv]

image
Screens :

image
Mediainfo :

Video
ID : 1
Format : AVC
Format/Info : Advanced Video Codec
Format profile : [email protected]
Format settings, CABAC : Yes
Format settings, ReFrames : 8 frames
Codec ID : V_MPEG4/ISO/AVC
Duration : 20mn 8s
Bit rate : 2 706 Kbps
Width : 1 280 pixels
Height : 720 pixels
Display aspect ratio : 16:9
Frame rate mode : Constant
Frame rate : 23.976 (24000/1001) fps
Color space : YUV
Chroma subsampling : 4:2:0
Bit depth : 8 bits
Scan type : Progressive
Bits/(Pixel*Frame) : 0.122
Stream size : 390 MiB (88%)
Writing library : x264 core 148 r2665 a01e339
Encoding settings : cabac=1 / ref=8 / deblock=1:-2:-2 / analyse=0x3:0x113 / me=umh / subme=9 / psy=1 / psy_rd=1.00:0.00 / mixed_ref=1 / me_range=24 / chroma_me=1 / trellis=1 / 8x8dct=1 / cqm=0 / deadzone=21,11 / fast_pskip=0 / chroma_qp_offset=-2 / threads=18 / lookahead_threads=2 / sliced_threads=0 / nr=0 / decimate=1 / interlaced=0 / bluray_compat=0 / constrained_intra=0 / bframes=5 / b_pyramid=2 / b_adapt=2 / b_bias=0 / direct=3 / weightb=1 / open_gop=0 / weightp=2 / keyint=250 / keyint_min=23 / scenecut=40 / intra_refresh=0 / rc_lookahead=50 / rc=crf / mbtree=1 / crf=18.0 / qcomp=0.60 / qpmin=0 / qpmax=69 / qpstep=4 / ip_ratio=1.40 / aq=1:1.00
Language : English
Default : Yes
Forced : No

Audio
ID : 2
Format : AC-3
Format/Info : Audio Coding 3
Mode extension : CM (complete main)
Format settings, Endianness : Big
Codec ID : A_AC3
Duration : 20mn 8s
Bit rate mode : Constant
Bit rate : 384 Kbps
Channel(s) : 6 channels
Channel positions : Front: L C R, Side: L R, LFE
Sampling rate : 48.0 KHz
Frame rate : 31.250 fps (1536 spf)
Compression mode : Lossy
Stream size : 55.3 MiB (12%)
Default : Yes
Forced : No

Related Torrents

torrent name size files age seed leech

Sharing Widget


Download torrent
445.23 MB
seeders:163
leechers:7
The Big Bang Theory S09E22 720p HDTV X264-DIMENSION[rartv]



To share this torrent use the code below and insert it into comments, status messages, forum posts or your signature.

Torrent: The Big Bang Theory S09E22 720p HDTV X264-DIMENSION[rartv]

Trackers

tracker name
udp://tracker.openbittorrent.com:80/announce
udp://tracker.publicbt.com:80/announce
http://retracker.krs-ix.ru/announce
udp://tracker.coppersurfer.tk:6969/announce
udp://glotorrents.pw:6969/announce
http://tracker.dler.org:6969/announce
http://tracker.mg64.net:6881/announce
http://explodie.org:6969/announce
http://open.acgtracker.com:1096/announce
udp://tracker.opentrackr.org:1337/announce
µTorrent compatible trackers list

Locations

name
KickassTorrents
Torrent hash: A1BBF77B4C4F9AEEED93C1E4CDBC5432812025B6

Top Comments

2
peter31662
audio: 10video: 10
Always download 720p DIMENSION, great quality in small package

All Comments

audio
9/10
video
9/10
please, leave only comments related to that torrent
Sign In

audio: 9video: 9
Excellent copy. Looks great on a 70"/178cm led screen. Great audio. Thank you.
audio: 10video: 9
Thanks for the upload :)
audio: 9video: 9
Thx cabeza!
audio: 10video: 10
Thanks!!
audio: 9video: 9
Excellent Print.
audio: 9video: 8
legit, thanx2uploader&seederz;)
Show More All

User Opinions

amayita8570, lnickos2876, Emee.sb2558, konna1556, lockley976, zybor953, e.emizerp427, decent.devil416, Yanou3501117, Roofio81 ... And 755 more
Ak1589268
Report a bug Open chat