Writing winning essays Patrick Forsyth Premium Free PDF English Pages 96 This book offers practical, proven ways to maximise your success in all aspects of essay writing, for example by undertaking the necessary research. | Enemies Closer | DownThemAllScarica da Firefox tutto quanto si trova nel web

Preacher S01E07 1080p HDTV X264-DIMENSION[rartv]

Removed by the request of copyright owner and not available for download, 3 days ago

Added by z0n3212.57M in TV
Torrent verified. Downloaded 4,824 times.

DownloadFast Safe Anonymous
movies, software, shows...
  • View all Preacher episodes
  • Episode title: He Gone
  • Episode: S01E07
  • Air date: 10 July 2016
  • IMDb link: 5016504
  • TVmaze link: Preacher
  • Summary:

    "Preacher", is based on Garth Ennis and Steve Dillon's cult 1990s comic. The show centers on Jesse Custer (Dominic Cooper), a conflicted Preacher in a small Texas town who is inhabited by a mysterious entity that allows him to develop a highly unconventional power. Along with his ex-girlfriend, Tulip (Ruth Negga), and an Irish vampire named Cassidy (Joseph Gilgun), the three embark on a journey to literally find God.

    Written by LazyRips39.4K
Available in versions: 1080p720p480pHDTVx265
Preacher S01E07 1080p HDTV X264-DIMENSION[rartv] (Size: 2.26 GB)
  Preacher.S01E07.1080p.HDTV.X264-DIMENSION.mkv 2.26 GB
  rarbg.com.txt 34 bytes
  preacher.107.1080-dimension.nfo 557 bytes

Description


http://rarbg.to
Preacher.S01E07.1080p.HDTV.X264-DIMENSION[rartv]

image
Screens :

image
Mediainfo :

Video
ID : 1
Format : AVC
Format/Info : Advanced Video Codec
Format profile : [email protected]
Format settings, CABAC : Yes
Format settings, ReFrames : 4 frames
Codec ID : V_MPEG4/ISO/AVC
Duration : 44mn 14s
Bit rate : 6 940 Kbps
Width : 1 920 pixels
Height : 1 080 pixels
Display aspect ratio : 16:9
Frame rate mode : Constant
Frame rate : 23.976 (24000/1001) fps
Color space : YUV
Chroma subsampling : 4:2:0
Bit depth : 8 bits
Scan type : Progressive
Bits/(Pixel*Frame) : 0.140
Stream size : 2.14 GiB (95%)
Writing library : x264 core 148 r2705 3f5ed56
Encoding settings : cabac=1 / ref=4 / deblock=1:-3:-3 / analyse=0x3:0x133 / me=umh / subme=11 / psy=1 / psy_rd=1.00:0.00 / mixed_ref=1 / me_range=32 / chroma_me=1 / trellis=2 / 8x8dct=1 / cqm=0 / deadzone=21,11 / fast_pskip=0 / chroma_qp_offset=-2 / threads=16 / lookahead_threads=1 / sliced_threads=0 / nr=0 / decimate=1 / interlaced=0 / bluray_compat=0 / constrained_intra=0 / bframes=5 / b_pyramid=2 / b_adapt=2 / b_bias=0 / direct=3 / weightb=1 / open_gop=0 / weightp=2 / keyint=250 / keyint_min=23 / scenecut=40 / intra_refresh=0 / rc_lookahead=60 / rc=crf / mbtree=1 / crf=17.0 / qcomp=0.60 / qpmin=0 / qpmax=69 / qpstep=4 / ip_ratio=1.40 / aq=1:1.00
Language : English
Default : Yes
Forced : No
Color range : Limited
Matrix coefficients : BT.709

Audio
ID : 2
Format : AC-3
Format/Info : Audio Coding 3
Mode extension : CM (complete main)
Format settings, Endianness : Big
Codec ID : A_AC3
Duration : 44mn 14s
Bit rate mode : Constant
Bit rate : 384 Kbps
Channel(s) : 6 channels
Channel positions : Front: L C R, Side: L R, LFE
Sampling rate : 48.0 KHz
Frame rate : 31.250 fps (1536 spf)
Compression mode : Lossy
Stream size : 122 MiB (5%)
Default : Yes
Forced : No

Related Torrents

torrent name size files age seed leech

Trackers

tracker name
udp://tracker.openbittorrent.com:80/announce
udp://tracker.publicbt.com:80/announce
udp://tracker.coppersurfer.tk:6969/announce
udp://9.rarbg.me:2710/announce
udp://p4p.arenabg.com:1337/announce
http://tracker.trackerfix.com/announce
udp://9.rarbg.to:2710/announce
udp://tracker.opentrackr.org:1337/announce
ĀµTorrent compatible trackers list

Locations

name
KickassTorrents
Torrent hash: C7EDDAD3EB8371AD96B2114CC31E8858CB9F6428

All Comments

audio
10/10
video
10/10
please, leave only comments related to that torrent
Sign In

audio: 10video: 10
Thanks
Love the show, thanks for upload!!
audio: 10video: 10
Thanks for this thumb_up
audio: 10video: 10
Excellent rip!

User Opinions

Grim.Scar32.14K, mlljones12.53K, ladyilonwick5640, Demetrious3235, dEVEsh722650, FastNLoud2183, mandead1856, wbnc821, germle804, baka2909258 ... And 23 more
Report a bug Open chat